<?xml version="1.0" standalone="no"?>
<!DOCTYPE svg PUBLIC "-//W3C//DTD SVG 1.1//EN" "http://www.w3.org/Graphics/SVG/1.1/DTD/svg11.dtd" >
<svg xmlns="http://www.w3.org/2000/svg">
<metadata>Generated by IcoMoon</metadata>
<defs>
<font id="icomoon" horiz-adv-x="1024">
<font-face units-per-em="1024" ascent="960" descent="-64" />
<missing-glyph horiz-adv-x="1024" />
<glyph unicode="&#x20;" horiz-adv-x="512" d="" />
<glyph unicode="&#xe600;" glyph-name="areaguides" d="M716.8-43.52c0 0-4.096 0-4.096 0l-573.44 122.88c-8.192 4.096-16.384 12.288-16.384 20.48v819.2c0 8.192 4.096 12.288 8.192 16.384s12.288 4.096 16.384 4.096l573.44-122.88c8.192-4.096 16.384-12.288 16.384-20.48v-819.2c0-8.192-4.096-12.288-8.192-16.384s-8.192-4.096-12.288-4.096zM163.84 116.224l532.48-114.688v778.24l-532.48 114.688v-778.24zM880.64 79.36h-163.84c-12.288 0-20.48 8.192-20.48 20.48s8.192 20.48 20.48 20.48h143.36v778.24h-716.8c-12.288 0-20.48 8.192-20.48 20.48s8.192 20.48 20.48 20.48h737.28c12.288 0 20.48-8.192 20.48-20.48v-819.2c0-12.288-8.192-20.48-20.48-20.48zM614.4 243.2c0 0 0 0 0 0l-372.736 40.96c-8.192 0-12.288 4.096-16.384 8.192s-4.096 12.288 0 20.48l184.32 409.6c4.096 8.192 12.288 12.288 20.48 12.288s16.384-4.096 20.48-12.288l184.32-450.56c4.096-8.192 0-12.288-4.096-20.48-4.096-4.096-8.192-8.192-16.384-8.192zM274.432 321.024l307.2-32.768-151.552 372.736-155.648-339.968zM430.080 120.32c-12.288 0-20.48 8.192-20.48 20.48v225.28c0 12.288 8.192 20.48 20.48 20.48s20.48-8.192 20.48-20.48v-225.28c0-12.288-8.192-20.48-20.48-20.48z" />
<glyph unicode="&#xe601;" glyph-name="arrowup" d="M839.68 161.28c-4.096 0-12.288 0-16.384 4.096l-311.296 311.296-311.296-311.296c-8.192-8.192-20.48-8.192-28.672 0s-8.192 20.48 0 28.672l327.68 327.68c8.192 8.192 20.48 8.192 28.672 0l327.68-327.68c8.192-8.192 8.192-20.48 0-28.672-4.096-4.096-12.288-4.096-16.384-4.096zM983.040 693.76h-942.080c-12.288 0-20.48 8.192-20.48 20.48s8.192 20.48 20.48 20.48h942.080c12.288 0 20.48-8.192 20.48-20.48s-8.192-20.48-20.48-20.48z" />
<glyph unicode="&#xe602;" glyph-name="carousel-left" d="M782.336-43.52c-4.096 0-8.192 0-12.288 4.096l-540.672 471.040c-4.096 4.096-8.192 8.192-8.192 16.384s4.096 12.288 8.192 16.384l536.576 471.040c8.192 8.192 20.48 8.192 28.672 0s8.192-20.48 0-28.672l-520.192-458.752 520.192-454.656c8.192-8.192 8.192-20.48 0-28.672-4.096-4.096-8.192-8.192-12.288-8.192z" />
<glyph unicode="&#xe603;" glyph-name="carousel-right" d="M241.664-43.52c-4.096 0-12.288 4.096-16.384 8.192-8.192 8.192-8.192 20.48 0 28.672l520.192 454.656-516.096 454.656c-8.192 8.192-8.192 20.48 0 28.672s20.48 8.192 28.672 0l536.576-471.040c4.096-4.096 8.192-8.192 8.192-16.384s-4.096-12.288-8.192-16.384l-536.576-466.944c-4.096-4.096-12.288-4.096-16.384-4.096z" />
<glyph unicode="&#xe604;" glyph-name="close" d="M569.344 448l421.888 421.888c16.384 16.384 16.384 40.96 0 57.344s-40.96 16.384-57.344 0l-421.888-421.888-421.888 421.888c-16.384 16.384-40.96 16.384-57.344 0s-16.384-40.96 0-57.344l421.888-421.888-421.888-421.888c-16.384-16.384-16.384-40.96 0-57.344 8.192-8.192 20.48-12.288 28.672-12.288 12.288 0 20.48 4.096 28.672 12.288l421.888 421.888 421.888-421.888c8.192-8.192 20.48-12.288 28.672-12.288 12.288 0 20.48 4.096 28.672 12.288 16.384 16.384 16.384 40.96 0 57.344l-421.888 421.888z" />
<glyph unicode="&#xe605;" glyph-name="directions" d="M491.52 640.512c-86.016 0-151.552 69.632-151.552 155.648s65.536 151.552 151.552 151.552c86.016 0 155.648-69.632 155.648-155.648s-69.632-151.552-155.648-151.552zM491.52 886.272c-49.152 0-94.208-40.96-94.208-94.208s40.96-94.208 94.208-94.208 94.208 40.96 94.208 94.208-45.056 94.208-94.208 94.208zM491.52 210.432c-16.384 0-32.768 12.288-32.768 32.768v430.080c0 16.384 12.288 32.768 32.768 32.768s32.768-12.288 32.768-32.768v-430.080c0-16.384-16.384-32.768-32.768-32.768zM983.040-55.808c-4.096 0-4.096 0-8.192 0l-278.528 81.92-360.448-81.92c-4.096 0-8.192 0-16.384 0l-286.72 81.92c-12.288 4.096-20.48 16.384-20.48 28.672v454.656c0 8.192 4.096 20.48 12.288 24.576s16.384 8.192 28.672 4.096l274.432-77.824 32.768 8.192c16.384 4.096 32.768-8.192 36.864-24.576s-8.192-32.768-24.576-36.864l-40.96-8.192c-4.096 0-8.192 0-16.384 0l-245.76 69.632v-385.024l258.048-73.728 360.448 81.92c4.096 0 8.192 0 16.384 0l245.76-69.632v385.024l-253.952 69.632-73.728-16.384c-16.384-4.096-32.768 8.192-36.864 24.576s8.192 32.768 24.576 36.864l81.92 16.384c4.096 0 8.192 0 16.384 0l286.72-81.92c12.288-4.096 20.48-16.384 20.48-28.672v-450.56c0-8.192-4.096-20.48-12.288-24.576s-12.288-8.192-20.48-8.192zM299.008 427.52h61.44v-450.56h-61.44v450.56zM667.648 509.44h61.44v-450.56h-61.44v450.56zM532.48 763.392c-16.384 0-32.768 12.288-32.768 32.768 0 4.096-4.096 12.288-12.288 12.288-16.384 0-32.768 12.288-32.768 32.768s12.288 32.768 32.768 32.768c40.96 0 73.728-32.768 73.728-73.728 4.096-20.48-12.288-36.864-28.672-36.864z" />
<glyph unicode="&#xe606;" glyph-name="distance" d="M942.080-23.040c-8.192 0-16.384 4.096-24.576 8.192l-262.144 188.416-262.144-188.416c-12.288-8.192-32.768-8.192-49.152 0l-286.72 204.8c-8.192 8.192-16.384 20.48-16.384 32.768v655.36c0 16.384 8.192 28.672 20.48 36.864s28.672 4.096 40.96-4.096l266.24-188.416 262.144 188.416c12.288 8.192 32.768 8.192 49.152 0l286.72-204.8c8.192-8.192 16.384-20.48 16.384-32.768v-655.36c0-16.384-8.192-28.672-20.48-36.864-8.192-4.096-12.288-4.096-20.48-4.096zM122.88 243.2l245.76-176.128 262.144 188.416c12.288 8.192 32.768 8.192 49.152 0l221.184-159.744v557.056l-245.76 176.128-262.144-188.416c-12.288-8.192-32.768-8.192-49.152 0l-221.184 159.744v-557.056zM368.64-23.040c-24.576 0-40.96 16.384-40.96 40.96v655.36c0 24.576 16.384 40.96 40.96 40.96s40.96-16.384 40.96-40.96v-655.36c0-24.576-16.384-40.96-40.96-40.96zM655.36 181.76c-24.576 0-40.96 16.384-40.96 40.96v655.36c0 24.576 16.384 40.96 40.96 40.96s40.96-16.384 40.96-40.96v-655.36c0-24.576-16.384-40.96-40.96-40.96z" />
<glyph unicode="&#xe607;" glyph-name="download-audio" d="M122.88 202.24c-57.344 0-102.4 45.056-102.4 102.4s45.056 102.4 102.4 102.4c12.288 0 20.48-8.192 20.48-20.48s-8.192-20.48-20.48-20.48c-32.768 0-61.44-28.672-61.44-61.44s28.672-61.44 61.44-61.44c12.288 0 20.48-8.192 20.48-20.48s-8.192-20.48-20.48-20.48zM286.72 79.36h-81.92c-57.344 0-102.4 45.056-102.4 102.4v245.76c0 57.344 45.056 102.4 102.4 102.4h81.92c12.288 0 20.48-8.192 20.48-20.48v-409.6c0-12.288-8.192-20.48-20.48-20.48zM204.8 488.96c-32.768 0-61.44-28.672-61.44-61.44v-245.76c0-32.768 28.672-61.44 61.44-61.44h61.44v368.64h-61.44zM901.12 202.24c-12.288 0-20.48 8.192-20.48 20.48s8.192 20.48 20.48 20.48c32.768 0 61.44 28.672 61.44 61.44s-28.672 61.44-61.44 61.44c-12.288 0-20.48 8.192-20.48 20.48s8.192 20.48 20.48 20.48c57.344 0 102.4-45.056 102.4-102.4s-45.056-102.4-102.4-102.4zM819.2 79.36h-81.92c-12.288 0-20.48 8.192-20.48 20.48v409.6c0 12.288 8.192 20.48 20.48 20.48h81.92c57.344 0 102.4-45.056 102.4-102.4v-245.76c0-57.344-45.056-102.4-102.4-102.4zM757.76 120.32h61.44c32.768 0 61.44 28.672 61.44 61.44v245.76c0 32.768-28.672 61.44-61.44 61.44h-61.44v-368.64zM819.2 509.44h-40.96c0 147.456-118.784 266.24-266.24 266.24s-266.24-118.784-266.24-266.24h-40.96c0 167.936 139.264 307.2 307.2 307.2s307.2-139.264 307.2-307.2z" />
<glyph unicode="&#xe608;" glyph-name="downloads-family-activity" d="M962.56-35.328h-901.12c-8.192 0-12.288 4.096-16.384 8.192s-4.096 12.288 0 20.48l450.56 925.696c8.192 12.288 28.672 12.288 36.864 0l450.56-921.6c4.096-8.192 4.096-12.288 0-20.48-8.192-8.192-12.288-12.288-20.48-12.288zM94.208 5.632h835.584l-417.792 856.064-417.792-856.064zM491.52 353.792h40.96v-368.64h-40.96v368.64zM696.32-23.040l-184.32 335.872-180.224-335.872-36.864 20.48 200.704 368.64c4.096 8.192 12.288 12.288 16.384 12.288 0 0 0 0 0 0 8.192 0 16.384-4.096 16.384-12.288l204.8-368.64-36.864-20.48zM282.624 456.192h458.752v-40.96h-458.752v40.96zM364.544 620.032h299.008v-40.96h-299.008v40.96z" />
<glyph unicode="&#xe609;" glyph-name="downloads-gpx" d="M516.096 325.12c-4.096 0-12.288 4.096-16.384 8.192-8.192 8.192-212.992 258.048-212.992 376.832 0 126.976 102.4 229.376 229.376 229.376s229.376-102.4 229.376-229.376c0-122.88-204.8-368.64-212.992-376.832-4.096-4.096-12.288-8.192-16.384-8.192zM516.096 898.56c-102.4 0-188.416-86.016-188.416-188.416 0-81.92 122.88-253.952 188.416-331.776 65.536 81.92 188.416 249.856 188.416 331.776 0 102.4-86.016 188.416-188.416 188.416zM516.096 611.84c-53.248 0-98.304 45.056-98.304 98.304s45.056 98.304 98.304 98.304 98.304-45.056 98.304-98.304c0-53.248-45.056-98.304-98.304-98.304zM516.096 767.488c-32.768 0-57.344-24.576-57.344-57.344s24.576-57.344 57.344-57.344 57.344 24.576 57.344 57.344-24.576 57.344-57.344 57.344zM921.6-43.52h-819.2c-4.096 0-12.288 4.096-16.384 8.192s-4.096 8.192-4.096 16.384l81.92 778.24c0 12.288 8.192 16.384 20.48 16.384h126.976c12.288 0 20.48-8.192 20.48-20.48s-8.192-20.48-20.48-20.48h-106.496l-77.824-737.28h774.144l-81.92 737.28h-102.4c-12.288 0-20.48 8.192-20.48 20.48s8.192 20.48 20.48 20.48h118.784c12.288 0 20.48-8.192 20.48-16.384l81.92-778.24c0-4.096 0-12.288-4.096-16.384 0-4.096-8.192-8.192-12.288-8.192zM897.024 202.24h-770.048c-12.288 0-20.48 8.192-20.48 20.48s8.192 20.48 20.48 20.48h765.952c12.288 0 20.48-8.192 20.48-20.48s-8.192-20.48-16.384-20.48zM864.256 488.96h-229.376c-12.288 0-20.48 8.192-20.48 20.48s8.192 20.48 20.48 20.48h229.376c12.288 0 20.48-8.192 20.48-20.48s-8.192-20.48-20.48-20.48zM393.216 488.96h-233.472c-12.288 0-20.48 8.192-20.48 20.48s8.192 20.48 20.48 20.48h237.568c12.288 0 20.48-8.192 20.48-20.48s-12.288-20.48-24.576-20.48zM307.2-43.52c0 0 0 0 0 0-12.288 0-20.48 12.288-20.48 20.48l40.96 614.4c0 12.288 12.288 20.48 20.48 20.48 12.288 0 20.48-12.288 20.48-20.48l-40.96-614.4c0-12.288-8.192-20.48-20.48-20.48zM724.992-43.52c-12.288 0-20.48 8.192-20.48 20.48l-40.96 614.4c0 12.288 8.192 20.48 20.48 20.48s20.48-8.192 20.48-20.48l40.96-614.4c0-8.192-8.192-20.48-20.48-20.48 0 0 0 0 0 0z" />
<glyph unicode="&#xe60a;" glyph-name="download-pdf" d="M512 17.92c-12.288 0-20.48 8.192-20.48 20.48 0 53.248-172.032 122.88-450.56 122.88-12.288 0-20.48 8.192-20.48 20.48v675.84c0 12.288 8.192 20.48 20.48 20.48 196.608 0 405.504-40.96 471.040-114.688 65.536 73.728 274.432 114.688 471.040 114.688 12.288 0 20.48-8.192 20.48-20.48v-675.84c0-12.288-8.192-20.48-20.48-20.48-278.528 0-450.56-69.632-450.56-122.88 0-12.288-8.192-20.48-20.48-20.48zM61.44 202.24c192.512-4.096 389.12-40.96 450.56-114.688 61.44 73.728 258.048 110.592 450.56 114.688v634.88c-266.24-4.096-430.080-73.728-430.080-122.88 0-12.288-8.192-20.48-20.48-20.48s-20.48 8.192-20.48 20.48c0 49.152-163.84 118.784-430.080 122.88v-634.88zM512 26.112c-12.288 0-20.48 8.192-20.48 20.48v667.648c0 12.288 8.192 20.48 20.48 20.48s20.48-8.192 20.48-20.48v-667.648c0-12.288-8.192-20.48-20.48-20.48zM409.6 603.648c-4.096 0-4.096 0-8.192 0-65.536 24.576-155.648 40.96-258.048 49.152-12.288 0-20.48 12.288-20.48 20.48 0 12.288 12.288 20.48 20.48 20.48 106.496-8.192 204.8-24.576 270.336-53.248 12.288-4.096 16.384-16.384 12.288-24.576 0-8.192-8.192-12.288-16.384-12.288zM409.6 480.768c-4.096 0-4.096 0-8.192 0-65.536 24.576-155.648 40.96-262.144 49.152-8.192 0-16.384 12.288-16.384 20.48 0 12.288 12.288 20.48 20.48 20.48 106.496-8.192 204.8-24.576 270.336-53.248 12.288-4.096 16.384-16.384 12.288-24.576 0-8.192-8.192-12.288-16.384-12.288zM409.6 357.888c-4.096 0-4.096 0-8.192 0-65.536 24.576-155.648 40.96-262.144 49.152-8.192 0-16.384 12.288-16.384 20.48 0 12.288 12.288 20.48 20.48 20.48 106.496-8.192 204.8-24.576 270.336-53.248 12.288-4.096 16.384-16.384 12.288-24.576 0-8.192-8.192-12.288-16.384-12.288zM409.6 235.008c-4.096 0-4.096 0-8.192 0-65.536 24.576-155.648 40.96-262.144 49.152-8.192 0-16.384 12.288-16.384 20.48 0 12.288 12.288 20.48 20.48 20.48 106.496-8.192 204.8-24.576 270.336-53.248 12.288-4.096 16.384-16.384 12.288-24.576 0-8.192-8.192-12.288-16.384-12.288zM614.4 603.648c-8.192 0-16.384 4.096-20.48 12.288-4.096 12.288 0 20.48 12.288 24.576 69.632 24.576 163.84 45.056 270.336 53.248 12.288 0 24.576-8.192 24.576-20.48s-8.192-20.48-20.48-20.48c-102.4-8.192-196.608-24.576-262.144-49.152 0 0 0 0-4.096 0zM614.4 480.768c-8.192 0-16.384 4.096-20.48 12.288-4.096 12.288 0 20.48 12.288 24.576 69.632 24.576 163.84 45.056 270.336 53.248 12.288 0 20.48-8.192 20.48-20.48s-8.192-20.48-20.48-20.48c-102.4-8.192-196.608-24.576-262.144-49.152 4.096 0 4.096 0 0 0zM614.4 357.888c-8.192 0-16.384 4.096-20.48 12.288-4.096 12.288 0 20.48 12.288 24.576 69.632 24.576 163.84 45.056 270.336 53.248 12.288 0 20.48-8.192 20.48-20.48s-8.192-20.48-20.48-20.48c-102.4-8.192-196.608-24.576-262.144-49.152 4.096 0 4.096 0 0 0zM614.4 235.008c-8.192 0-16.384 4.096-20.48 12.288-4.096 12.288 0 20.48 12.288 24.576 69.632 24.576 163.84 45.056 270.336 53.248 12.288 0 20.48-8.192 20.48-20.48s-8.192-20.48-20.48-20.48c-102.4-8.192-196.608-24.576-262.144-49.152 4.096 0 4.096 0 0 0z" />
<glyph unicode="&#xe60b;" glyph-name="droparrow" d="M512 108.032v0c-4.096 0-12.288 4.096-16.384 8.192l-471.040 548.864c-8.192 8.192-4.096 20.48 4.096 28.672l106.496 90.112c8.192 8.192 20.48 8.192 28.672-4.096l348.16-409.6 348.16 409.6c8.192 8.192 20.48 8.192 28.672 4.096l106.496-90.112c4.096-4.096 8.192-8.192 8.192-12.288s0-12.288-4.096-16.384l-471.040-548.864c-4.096-8.192-12.288-8.192-16.384-8.192zM69.632 673.28l442.368-516.096 442.368 516.096-73.728 65.536-352.256-409.6c-4.096-4.096-8.192-8.192-16.384-8.192v0c-4.096 0-12.288 4.096-16.384 8.192l-352.256 409.6-73.728-65.536z" />
<glyph unicode="&#xe60c;" glyph-name="facebook" d="M761.856 632.32h-176.128v77.824c0 36.864 24.576 45.056 40.96 45.056s122.88 0 122.88 0v163.84h-176.128c-159.744 0-188.416-122.88-188.416-196.608v-90.112h-122.88v-163.84h122.88c0-212.992 0-491.52 0-491.52h204.8c0 0 0 282.624 0 491.52h159.744l12.288 163.84z" />
<glyph unicode="&#xe60d;" glyph-name="featured" d="M921.6 366.080c0 0 0 0 0 0h-737.28c-12.288 0-20.48 8.192-20.48 20.48v491.52c0 12.288 8.192 20.48 20.48 20.48h737.28c8.192 0 16.384-4.096 20.48-12.288s0-16.384-8.192-24.576l-286.72-229.376 282.624-225.28c8.192-4.096 12.288-12.288 12.288-20.48 0-12.288-8.192-20.48-20.48-20.48zM204.8 407.040h659.456l-262.144 208.896c-4.096 4.096-8.192 8.192-8.192 16.384s4.096 12.288 8.192 16.384l262.144 208.896h-659.456v-450.56zM102.4-43.52c-12.288 0-20.48 8.192-20.48 20.48v942.080c0 12.288 8.192 20.48 20.48 20.48s20.48-8.192 20.48-20.48v-942.080c0-12.288-8.192-20.48-20.48-20.48z" />
<glyph unicode="&#xe60e;" glyph-name="instagram" d="M512 693.76c-135.168 0-245.76-110.592-245.76-245.76s110.592-245.76 245.76-245.76c135.168 0 245.76 110.592 245.76 245.76s-110.592 245.76-245.76 245.76zM532.48 894.464c-16.384-4.096-28.672-8.192-40.96-12.288v-290.816h40.96v303.104zM532.48 595.456v303.104h-40.96v-307.2l40.96 4.096c0-4.096 0 0 0 0zM962.56 169.472v585.728c0 77.824-65.536 143.36-143.36 143.36h-512v-249.856c53.248 53.248 122.88 86.016 204.8 86.016 106.496 0 196.608-57.344 249.856-143.36h159.744v-421.888c0-69.632-57.344-131.072-131.072-131.072h-557.056c-69.632 0-131.072 57.344-131.072 131.072v684.032c-24.576-24.576-40.96-57.344-40.96-98.304v-585.728c0-94.208 77.824-172.032 172.032-172.032h561.152c90.112 0 167.936 77.824 167.936 172.032zM901.12 652.8h-122.88c-12.288 0-20.48 8.192-20.48 20.48v122.88c0 12.288 8.192 20.48 20.48 20.48h122.88c12.288 0 20.48-8.192 20.48-20.48v-122.88c0-12.288-8.192-20.48-20.48-20.48z" />
<glyph unicode="&#xe60f;" glyph-name="landscapetrailsmall" d="M512 132.608c-8.192 0-16.384 4.096-24.576 12.288-20.48 24.576-217.088 262.144-217.088 385.024 0 131.072 106.496 237.568 237.568 237.568s237.568-106.496 237.568-237.568c0-122.88-192.512-356.352-217.088-385.024 0-8.192-8.192-12.288-16.384-12.288zM512 701.952c-98.304 0-176.128-77.824-176.128-176.128 0-73.728 110.592-233.472 176.128-315.392 65.536 81.92 176.128 241.664 176.128 315.392 0 98.304-77.824 176.128-176.128 176.128zM512 415.232c-61.44 0-110.592 49.152-110.592 110.592s49.152 110.592 110.592 110.592c61.44 0 110.592-49.152 110.592-110.592s-49.152-110.592-110.592-110.592zM512 574.976c-24.576 0-49.152-20.48-49.152-49.152 0-24.576 20.48-49.152 49.152-49.152 24.576 0 49.152 20.48 49.152 49.152 0 24.576-24.576 49.152-49.152 49.152z" />
<glyph unicode="&#xe610;" glyph-name="landscapetrail" d="M249.856 58.88c-4.096 0-12.288 4.096-16.384 8.192-8.192 12.288-212.992 258.048-212.992 376.832 0 126.976 102.4 229.376 229.376 229.376s229.376-102.4 229.376-229.376c0-122.88-204.8-368.64-212.992-376.832-4.096-4.096-12.288-8.192-16.384-8.192zM249.856 632.32c-102.4 0-188.416-86.016-188.416-188.416 0-81.92 122.88-253.952 188.416-331.776 65.536 81.92 188.416 249.856 188.416 331.776 0 102.4-86.016 188.416-188.416 188.416zM249.856 345.6c-53.248 0-98.304 45.056-98.304 98.304s45.056 98.304 98.304 98.304c53.248 0 98.304-45.056 98.304-98.304s-45.056-98.304-98.304-98.304zM249.856 501.248c-32.768 0-57.344-24.576-57.344-57.344s24.576-57.344 57.344-57.344c32.768 0 57.344 24.576 57.344 57.344s-24.576 57.344-57.344 57.344zM614.4-23.040h-364.544c-12.288 0-20.48 8.192-20.48 20.48s8.192 20.48 20.48 20.48h344.064v348.16c0 12.288 8.192 20.48 20.48 20.48h204.8c12.288 0 20.48-8.192 20.48-20.48s-8.192-20.48-20.48-20.48h-184.32v-348.16c0-12.288-8.192-20.48-20.48-20.48zM819.2 427.52c-4.096 0-12.288 4.096-16.384 8.192-16.384 20.48-167.936 204.8-167.936 299.008 0 102.4 81.92 184.32 184.32 184.32s184.32-81.92 184.32-184.32c0-94.208-151.552-278.528-167.936-299.008-4.096-4.096-12.288-8.192-16.384-8.192zM819.2 878.080c-77.824 0-143.36-65.536-143.36-143.36 0-61.44 94.208-188.416 143.36-253.952 49.152 65.536 143.36 192.512 143.36 253.952 0 77.824-65.536 143.36-143.36 143.36zM819.2 652.8c-45.056 0-81.92 36.864-81.92 81.92s36.864 81.92 81.92 81.92 81.92-36.864 81.92-81.92-36.864-81.92-81.92-81.92zM819.2 775.68c-24.576 0-40.96-16.384-40.96-40.96s16.384-40.96 40.96-40.96 40.96 16.384 40.96 40.96-16.384 40.96-40.96 40.96z" />
<glyph unicode="&#xe611;" glyph-name="landscape" d="M122.88-55.808c-16.384 0-32.768 12.288-32.768 32.768v942.080c0 16.384 12.288 32.768 32.768 32.768s32.768-16.384 32.768-32.768v-942.080c0-16.384-16.384-32.768-32.768-32.768zM675.84 251.392v0c-126.976 0-151.552 53.248-151.552 94.208 0 16.384-20.48 24.576-61.44 24.576-98.304 0-245.76-53.248-245.76-53.248-8.192-4.096-20.48 0-28.672 4.096s-12.288 16.384-12.288 24.576v491.52c0 12.288 8.192 24.576 20.48 28.672 8.192 4.096 159.744 57.344 266.24 57.344s122.88-53.248 122.88-86.016c0-8.192 0-16.384 16.384-20.48 12.288-4.096 32.768-12.288 73.728-12.288 94.208 0 221.184 32.768 221.184 32.768 8.192 4.096 20.48 0 28.672-4.096s12.288-16.384 12.288-24.576v-491.52c0-12.288-8.192-24.576-24.576-28.672-8.192-4.096-135.168-36.864-237.568-36.864zM462.848 431.616c106.496 0 122.88-53.248 122.88-86.016 0-28.672 57.344-32.768 90.112-32.768 69.632 0 155.648 16.384 196.608 28.672v430.080c-45.056-12.288-126.976-24.576-196.608-24.576-40.96 0-73.728 4.096-98.304 16.384-32.768 16.384-53.248 45.056-53.248 77.824 0 16.384-20.48 24.576-61.44 24.576-73.728 0-184.32-32.768-225.28-45.056v-434.176c53.248 16.384 151.552 45.056 225.28 45.056z" />
<glyph unicode="&#xe612;" glyph-name="level" d="M532.48 26.112c0 0 0 0 0 0-16.384 0-28.672 12.288-28.672 24.576l-102.4 647.168-86.016-278.528c-4.096-12.288-16.384-20.48-28.672-20.48h-245.76c-16.384 0-32.768 12.288-32.768 32.768s12.288 32.768 32.768 32.768h221.184l114.688 389.12c4.096 12.288 16.384 24.576 32.768 20.48 12.288 0 24.576-12.288 28.672-24.576l98.304-614.4 90.112 413.696c4.096 12.288 12.288 24.576 28.672 24.576 12.288 0 24.576-8.192 32.768-20.48l73.728-184.32h221.184c16.384 0 32.768-12.288 32.768-32.768s-12.288-32.768-32.768-32.768h-245.76c-12.288 0-24.576 8.192-28.672 20.48l-45.056 110.592-102.4-475.136c0-20.48-12.288-32.768-28.672-32.768z" />
<glyph unicode="&#xe613;" glyph-name="pinformap" d="M512 939.52c-180.224 0-327.68-147.456-327.68-327.68 0-172.032 299.008-626.688 311.296-647.168 4.096-4.096 8.192-8.192 16.384-8.192s12.288 4.096 16.384 8.192c12.288 20.48 311.296 471.040 311.296 647.168 0 180.224-147.456 327.68-327.68 327.68zM512 468.48c-77.824 0-143.36 65.536-143.36 143.36s65.536 143.36 143.36 143.36 143.36-65.536 143.36-143.36-65.536-143.36-143.36-143.36z" />
<glyph unicode="&#xe614;" glyph-name="pin-mylocation" d="M512 509.44c-90.112 0-163.84 73.728-163.84 163.84s73.728 163.84 163.84 163.84 163.84-73.728 163.84-163.84-73.728-163.84-163.84-163.84zM512 796.16c-69.632 0-122.88-53.248-122.88-122.88s53.248-122.88 122.88-122.88 122.88 53.248 122.88 122.88-53.248 122.88-122.88 122.88zM512 58.88c-8.192 0-12.288 4.096-16.384 8.192-12.288 16.384-282.624 434.176-282.624 589.824-4.096 167.936 131.072 303.104 299.008 303.104s303.104-135.168 303.104-303.104c0-159.744-274.432-573.44-282.624-589.824-8.192-4.096-12.288-8.192-20.48-8.192zM512 919.040c-143.36 0-262.144-118.784-262.144-262.144 0-126.976 200.704-446.464 262.144-540.672 61.44 94.208 262.144 417.792 262.144 540.672 0 143.36-118.784 262.144-262.144 262.144zM512-23.040c-49.152 0-491.52 4.096-491.52 102.4 0 45.056 94.208 77.824 282.624 94.208 12.288 0 20.48-8.192 20.48-20.48s-8.192-20.48-20.48-20.48c-184.32-16.384-241.664-45.056-245.76-53.248 16.384-20.48 176.128-61.44 454.656-61.44s438.272 40.96 450.56 61.44c-4.096 4.096-61.44 36.864-249.856 53.248-12.288 0-20.48 12.288-20.48 20.48 0 12.288 12.288 20.48 20.48 20.48 188.416-16.384 286.72-49.152 286.72-94.208 4.096-98.304-438.272-102.4-487.424-102.4z" />
<glyph unicode="&#xe615;" glyph-name="region" d="M512-55.808c-278.528 0-503.808 225.28-503.808 503.808s225.28 499.712 503.808 499.712 503.808-225.28 503.808-503.808-225.28-499.712-503.808-499.712zM512 886.272c-241.664 0-438.272-196.608-438.272-438.272s196.608-442.368 442.368-442.368 442.368 196.608 442.368 442.368-204.8 438.272-446.464 438.272zM614.4 312.832c-8.192 0-16.384 4.096-20.48 8.192l-204.8 204.8c-8.192 8.192-12.288 16.384-8.192 28.672 0 8.192 8.192 20.48 16.384 20.48l348.16 143.36c12.288 8.192 24.576 4.096 32.768-4.096s12.288-20.48 8.192-32.768l-143.36-348.16c-4.096-8.192-12.288-16.384-20.48-16.384-4.096 0-8.192-4.096-8.192-4.096zM462.848 538.112l139.264-139.264 98.304 237.568-237.568-98.304zM266.24 169.472c-8.192 0-16.384 4.096-20.48 8.192-8.192 8.192-12.288 20.48-8.192 32.768l143.36 348.16c4.096 8.192 12.288 16.384 20.48 16.384s20.48 0 28.672-8.192l204.8-204.8c8.192-8.192 12.288-16.384 8.192-28.672 0-8.192-8.192-20.48-20.48-20.48l-348.16-143.36c0 4.096-4.096 0-8.192 0zM421.888 497.152l-98.304-237.568 237.568 98.304-139.264 139.264z" />
<glyph unicode="&#xe616;" glyph-name="search" d="M368.64 222.72c-204.8 0-368.64 163.84-368.64 368.64s163.84 368.64 368.64 368.64c204.8 0 368.64-163.84 368.64-368.64s-163.84-368.64-368.64-368.64zM368.64 878.080c-159.744 0-286.72-126.976-286.72-286.72s126.976-286.72 286.72-286.72 286.72 126.976 286.72 286.72-126.976 286.72-286.72 286.72zM983.040-64c-12.288 0-20.48 4.096-28.672 12.288l-380.928 380.928c-16.384 16.384-16.384 40.96 0 57.344s40.96 16.384 57.344 0l380.928-380.928c16.384-16.384 16.384-40.96 0-57.344-8.192-8.192-16.384-12.288-28.672-12.288z" />
<glyph unicode="&#xe617;" glyph-name="selectedforyou" d="M860.16-43.52c-4.096 0-8.192 0-12.288 4.096l-335.872 217.088-335.872-217.088c-8.192-4.096-12.288-4.096-20.48 0s-12.288 12.288-12.288 16.384v942.080c0 12.288 8.192 20.48 20.48 20.48h696.32c12.288 0 20.48-8.192 20.48-20.48v-942.080c0-8.192-4.096-16.384-12.288-16.384 0-4.096-4.096-4.096-8.192-4.096zM512 222.72c4.096 0 8.192 0 12.288-4.096l315.392-204.8v884.736h-655.36v-884.736l315.392 204.8c4.096 4.096 8.192 4.096 12.288 4.096zM655.36 325.12c-4.096 0-8.192 0-12.288 4.096l-131.072 94.208-131.072-94.208c-8.192-4.096-16.384-4.096-24.576 0s-12.288 12.288-8.192 20.48l36.864 151.552-110.592 94.208c-8.192 8.192-8.192 16.384-8.192 24.576 4.096 8.192 12.288 12.288 20.48 12.288h151.552l53.248 131.072c8.192 16.384 32.768 16.384 36.864 0l57.344-131.072h151.552c8.192 0 16.384-4.096 20.48-12.288s0-16.384-4.096-24.576l-114.688-94.208 36.864-151.552c4.096-8.192 0-16.384-8.192-20.48-4.096-4.096-8.192-4.096-12.288-4.096zM512 468.48c4.096 0 8.192 0 12.288-4.096l98.304-69.632-28.672 110.592c0 8.192 0 16.384 8.192 20.48l77.824 65.536h-106.496c-8.192 0-16.384 4.096-20.48 12.288l-40.96 98.304-40.96-98.304c-4.096-8.192-12.288-12.288-20.48-12.288h-106.496l77.824-65.536c4.096-4.096 8.192-12.288 8.192-20.48l-28.672-110.592 98.304 69.632c4.096 4.096 8.192 4.096 12.288 4.096z" />
<glyph unicode="&#xe618;" glyph-name="share" d="M272 304c-80 0-144 64-144 144s64 144 144 144c54.4 0 105.6-32 128-80l-28.8-12.8c-19.2 38.4-57.6 60.8-99.2 60.8-60.8 0-112-51.2-112-112s51.2-112 112-112c41.6 0 80 22.4 99.2 60.8l28.8-12.8c-22.4-48-73.6-80-128-80zM752 544v32c60.8 0 112 51.2 112 112s-51.2 112-112 112-112-51.2-112-112c0-16 3.2-35.2 12.8-51.2l-28.8-12.8c-9.6 19.2-16 41.6-16 64 0 80 64 144 144 144s144-64 144-144-64-144-144-144zM752 64c-51.2 0-96 25.6-121.6 67.2s-28.8 96-6.4 140.8l28.8-12.8c-16-35.2-16-76.8 6.4-108.8 19.2-32 57.6-54.4 96-54.4 60.8 0 112 51.2 112 112s-54.4 112-115.2 112v32c80 0 144-64 144-144s-64-144-144-144zM636.8 249.6c-3.2 0-6.4 0-6.4 3.2l-252.8 124.8c-6.4 3.2-9.6 12.8-6.4 22.4 6.4 16 12.8 32 12.8 51.2 0 16-3.2 35.2-12.8 51.2-3.2 3.2-3.2 9.6 0 12.8 0 3.2 3.2 6.4 9.6 9.6l252.8 124.8c6.4 3.2 16 0 22.4-6.4 19.2-38.4 57.6-60.8 99.2-60.8v-32c-48 0-92.8 25.6-121.6 67.2l-224-112c6.4-16 9.6-32 9.6-51.2 0-16-3.2-35.2-9.6-51.2l224-112c25.6 41.6 70.4 67.2 121.6 67.2v-32c-41.6 0-80-22.4-99.2-60.8-6.4-12.8-12.8-16-19.2-16z" />
<glyph unicode="&#xe619;" glyph-name="showonmap" d="M512 79.36c-12.288 0-24.576 8.192-32.768 16.384-28.672 36.864-274.432 380.928-274.432 557.056 0 192.512 114.688 307.2 307.2 307.2s307.2-114.688 307.2-307.2c0-176.128-245.76-520.192-274.432-557.056-8.192-8.192-20.48-16.384-32.768-16.384zM512 878.080c-147.456 0-225.28-77.824-225.28-225.28 0-110.592 139.264-339.968 225.28-462.848 81.92 122.88 225.28 348.16 225.28 462.848 0 147.456-77.824 225.28-225.28 225.28zM512 509.44c-77.824 0-143.36 65.536-143.36 143.36s65.536 143.36 143.36 143.36 143.36-65.536 143.36-143.36-65.536-143.36-143.36-143.36zM512 714.24c-32.768 0-61.44-28.672-61.44-61.44s28.672-61.44 61.44-61.44 61.44 28.672 61.44 61.44-28.672 61.44-61.44 61.44zM327.68-64c-16.384 0-32.768 12.288-36.864 28.672-8.192 20.48 4.096 45.056 24.576 53.248l368.64 122.88c20.48 8.192 45.056-4.096 53.248-24.576s-4.096-45.056-24.576-53.248l-368.64-122.88c-8.192-4.096-12.288-4.096-16.384-4.096zM696.32-64c-4.096 0-8.192 0-12.288 4.096l-368.64 122.88c-20.48 8.192-32.768 28.672-24.576 53.248 8.192 20.48 28.672 32.768 53.248 24.576l368.64-122.88c20.48-8.192 32.768-28.672 24.576-53.248-8.192-16.384-24.576-28.672-40.96-28.672z" />
<glyph unicode="&#xe61a;" glyph-name="time" d="M512 5.632c-241.664 0-442.368 196.608-442.368 442.368s200.704 442.368 442.368 442.368 442.368-196.608 442.368-442.368-200.704-442.368-442.368-442.368zM512 808.448c-196.608 0-360.448-159.744-360.448-360.448s159.744-360.448 360.448-360.448 360.448 159.744 360.448 360.448-163.84 360.448-360.448 360.448zM618.496 214.528c-8.192 0-20.48 4.096-28.672 12.288l-208.896 192.512c-8.192 8.192-12.288 20.48-12.288 28.672v192.512c0 24.576 16.384 40.96 40.96 40.96s40.96-16.384 40.96-40.96v-172.032l196.608-180.224c16.384-16.384 16.384-40.96 4.096-57.344-12.288-12.288-24.576-16.384-32.768-16.384z" />
<glyph unicode="&#xe61b;" glyph-name="twitter" d="M970.752 722.432c-32.768-16.384-61.44-16.384-90.112 0 36.864 24.576 40.96 40.96 53.248 81.92-36.864-20.48-77.824-36.864-118.784-45.056-32.768 36.864-81.92 57.344-135.168 57.344-102.4 0-184.32-81.92-184.32-184.32 0-16.384 0-28.672 4.096-40.96-155.648 8.192-290.816 81.92-385.024 192.512-16.384-28.672-24.576-61.44-24.576-94.208 0-65.536 32.768-122.88 81.92-155.648-28.672 0-57.344 8.192-86.016 24.576 0 0 0 0 0-4.096 0-90.112 65.536-163.84 147.456-184.32-28.672-8.192-57.344-8.192-86.016-4.096 28.672-69.632 98.304-122.88 180.224-126.976-77.824-61.44-180.224-90.112-274.432-77.824 81.92-53.248 180.224-81.92 286.72-81.92 344.064 0 528.384 282.624 528.384 528.384 0 8.192 0 16.384 0 24.576 32.768 28.672 77.824 53.248 102.4 90.112z" />
<glyph unicode="&#xe61c;" glyph-name="viewpoint" d="M512-43.52c-8.192 0-12.288 4.096-16.384 8.192-12.288 20.48-311.296 471.040-311.296 647.168 0 180.224 147.456 327.68 327.68 327.68s327.68-147.456 327.68-327.68c0-172.032-299.008-626.688-311.296-647.168-4.096-4.096-8.192-8.192-16.384-8.192zM512 898.56c-159.744 0-286.72-126.976-286.72-286.72 0-139.264 221.184-495.616 286.72-598.016 65.536 98.304 286.72 458.752 286.72 598.016 0 159.744-126.976 286.72-286.72 286.72zM512 468.48c-77.824 0-143.36 65.536-143.36 143.36s65.536 143.36 143.36 143.36c77.824 0 143.36-65.536 143.36-143.36s-65.536-143.36-143.36-143.36zM512 714.24c-57.344 0-102.4-45.056-102.4-102.4s45.056-102.4 102.4-102.4c57.344 0 102.4 45.056 102.4 102.4s-45.056 102.4-102.4 102.4z" />
<glyph unicode="&#xe61d;" glyph-name="walk" d="M466.944 488.96v0c-4.096 0-12.288 4.096-16.384 8.192-16.384 20.48-155.648 188.416-155.648 274.432 0 94.208 77.824 167.936 167.936 167.936 94.208 0 167.936-77.824 167.936-167.936 0-86.016-139.264-253.952-155.648-274.432 4.096-4.096 0-8.192-8.192-8.192zM466.944 898.56c-69.632 0-126.976-57.344-126.976-126.976 0-53.248 81.92-167.936 126.976-229.376 45.056 57.344 126.976 172.032 126.976 229.376 4.096 69.632-53.248 126.976-126.976 126.976zM466.944 693.76c-40.96 0-77.824 32.768-77.824 77.824s32.768 77.824 77.824 77.824c40.96 0 77.824-32.768 77.824-77.824s-32.768-77.824-77.824-77.824zM466.944 804.352c-20.48 0-36.864-16.384-36.864-36.864s16.384-36.864 36.864-36.864c20.48 0 36.864 16.384 36.864 36.864s-16.384 36.864-36.864 36.864zM835.584 243.2v0c-4.096 0-12.288 4.096-16.384 8.192-12.288 16.384-139.264 167.936-139.264 245.76 0 86.016 69.632 155.648 155.648 155.648s155.648-69.632 155.648-155.648c0-77.824-122.88-229.376-139.264-245.76-4.096-4.096-8.192-8.192-16.384-8.192zM835.584 611.84c-61.44 0-114.688-49.152-114.688-114.688 0-45.056 65.536-139.264 114.688-200.704 40.96 53.248 114.688 155.648 114.688 200.704 0 65.536-49.152 114.688-114.688 114.688zM835.584 427.52c-40.96 0-69.632 32.768-69.632 69.632 0 40.96 32.768 69.632 69.632 69.632s69.632-32.768 69.632-69.632c4.096-36.864-28.672-69.632-69.632-69.632zM835.584 529.92c-16.384 0-28.672-12.288-28.672-28.672s12.288-28.672 28.672-28.672c16.384 0 28.672 12.288 28.672 28.672 4.096 12.288-8.192 28.672-28.672 28.672zM221.184-43.52c-12.288 0-20.48 8.192-20.48 20.48 0 40.96-40.96 102.4-77.824 159.744s-77.824 118.784-90.112 172.032c-12.288 57.344 4.096 114.688 36.864 155.648s90.112 65.536 151.552 65.536c65.536 0 114.688-20.48 151.552-61.44s49.152-98.304 36.864-159.744c-8.192-45.056-45.056-102.4-81.92-159.744-40.96-61.44-86.016-126.976-86.016-172.032 0-12.288-8.192-20.48-20.48-20.48zM221.184 488.96c-49.152 0-90.112-16.384-118.784-49.152-24.576-32.768-36.864-77.824-28.672-122.88s45.056-102.4 81.92-155.648c24.576-36.864 49.152-73.728 65.536-106.496 16.384 36.864 45.056 77.824 69.632 118.784 36.864 49.152 73.728 106.496 77.824 143.36 0 0 0 0 0 0 8.192 49.152-4.096 94.208-28.672 122.88-24.576 32.768-65.536 49.152-118.784 49.152zM221.184 251.392c-53.248 0-98.304 45.056-98.304 98.304s45.056 98.304 98.304 98.304 98.304-45.056 98.304-98.304c0-53.248-40.96-98.304-98.304-98.304zM221.184 407.040c-32.768 0-57.344-24.576-57.344-57.344s24.576-57.344 57.344-57.344 57.344 24.576 57.344 57.344c0 28.672-24.576 57.344-57.344 57.344zM708.608 292.352c-4.096 0-8.192 0-12.288 4.096l-200.704 135.168c-8.192 8.192-12.288 20.48-4.096 28.672s20.48 12.288 28.672 4.096l200.704-135.168c8.192-8.192 12.288-20.48 4.096-28.672-4.096-4.096-12.288-8.192-16.384-8.192zM327.68 5.632c-8.192 0-16.384 4.096-20.48 12.288-4.096 12.288 0 20.48 8.192 28.672l405.504 188.416c8.192 4.096 20.48 0 28.672-8.192s0-20.48-8.192-28.672l-405.504-188.416c-4.096-4.096-4.096-4.096-8.192-4.096z" />
<glyph unicode="&#xe61e;" glyph-name="youtube" d="M446.464 886.272c8.192 8.192 4.096 20.48-4.096 28.672-8.192 4.096-20.48 4.096-28.672-4.096l-106.496-139.264-106.496 139.264c-8.192 8.192-20.48 8.192-28.672 4.096-12.288-8.192-12.288-20.48-4.096-28.672l118.784-155.648v-180.224c0-12.288 8.192-20.48 20.48-20.48s20.48 12.288 20.48 20.48v180.224l118.784 155.648zM491.52 816.64c-45.056 0-81.92-36.864-81.92-81.92v-122.88c0-45.056 36.864-81.92 81.92-81.92s81.92 36.864 81.92 81.92v122.88c0 45.056-36.864 81.92-81.92 81.92zM491.52 570.88c-24.576 0-40.96 16.384-40.96 40.96v122.88c0 24.576 16.384 40.96 40.96 40.96s40.96-16.384 40.96-40.96v-122.88c0-20.48-16.384-40.96-40.96-40.96zM819.2 632.32v163.84c0 12.288-8.192 20.48-20.48 20.48s-20.48-8.192-20.48-20.48v-163.84c0-32.768-28.672-61.44-61.44-61.44-16.384 0-32.768 8.192-45.056 16.384-8.192 16.384-16.384 28.672-16.384 45.056v163.84c0 12.288-8.192 20.48-20.48 20.48s-20.48-8.192-20.48-20.48v-163.84c0-28.672 12.288-53.248 28.672-73.728 20.48-20.48 45.056-28.672 73.728-28.672 0 0 0 0 0 0 24.576 0 45.056 8.192 61.44 20.48 0-8.192 8.192-16.384 20.48-16.384s20.48 8.192 20.48 20.48v77.824c0 0 0 0 0 0zM593.92 243.2c-12.288 0-20.48-8.192-20.48-20.48v-81.92c0-12.288 8.192-20.48 20.48-20.48s20.48 12.288 20.48 20.48v81.92c0 12.288-8.192 20.48-20.48 20.48zM778.24 222.72c0 12.288-8.192 20.48-20.48 20.48s-20.48-8.192-20.48-20.48v-20.48h40.96v20.48zM798.72 427.52h-573.44c-90.112 0-163.84-73.728-163.84-163.84v-122.88c0-90.112 73.728-163.84 163.84-163.84h573.44c90.112 0 163.84 73.728 163.84 163.84v122.88c0 90.112-73.728 163.84-163.84 163.84zM348.16 284.16h-61.44v-184.32c0-12.288-8.192-20.48-20.48-20.48s-20.48 8.192-20.48 20.48v184.32h-61.44c-12.288 0-20.48 12.288-20.48 20.48s8.192 20.48 20.48 20.48h163.84c12.288 0 20.48-8.192 20.48-20.48s-8.192-20.48-20.48-20.48zM471.040 83.456c-4.096 0-8.192 0-12.288 4.096-8.192-4.096-20.48-8.192-28.672-8.192-32.768 0-61.44 28.672-61.44 61.44v122.88c0 12.288 8.192 20.48 20.48 20.48s20.48-8.192 20.48-20.48v-122.88c0-12.288 8.192-20.48 20.48-20.48s20.48 12.288 20.48 20.48v122.88c0 12.288 8.192 20.48 20.48 20.48s20.48-8.192 20.48-20.48v-159.744c0-12.288-8.192-20.48-20.48-20.48zM655.36 140.8c0-32.768-28.672-61.44-61.44-61.44-8.192 0-20.48 4.096-28.672 8.192-4.096-4.096-8.192-4.096-12.288-4.096-12.288 0-20.48 8.192-20.48 20.48v245.76c0 12.288 8.192 20.48 20.48 20.48s20.48-8.192 20.48-20.48v-65.536c8.192 4.096 12.288 4.096 20.48 4.096 32.768 0 61.44-28.672 61.44-61.44v-86.016zM761.856 75.264c-32.768 0-65.536 32.768-65.536 65.536v81.92c0 32.768 28.672 61.44 61.44 61.44s61.44-28.672 61.44-61.44v-40.96c0-12.288-8.192-20.48-20.48-20.48h-61.44v-20.48c0-12.288 12.288-24.576 24.576-24.576 8.192 0 24.576 4.096 24.576 16.384s8.192 20.48 20.48 20.48c12.288 0 20.48-8.192 20.48-20.48 0-32.768-28.672-57.344-65.536-57.344z" />
<glyph unicode="&#xe61f;" glyph-name="arrowup2" d="M839.68 161.28c-4.096 0-12.288 0-16.384 4.096l-311.296 311.296-311.296-311.296c-8.192-8.192-20.48-8.192-28.672 0s-8.192 20.48 0 28.672l327.68 327.68c8.192 8.192 20.48 8.192 28.672 0l327.68-327.68c8.192-8.192 8.192-20.48 0-28.672-4.096-4.096-12.288-4.096-16.384-4.096zM983.040 693.76h-942.080c-12.288 0-20.48 8.192-20.48 20.48s8.192 20.48 20.48 20.48h942.080c12.288 0 20.48-8.192 20.48-20.48s-8.192-20.48-20.48-20.48z" />
<glyph unicode="&#xe620;" glyph-name="carousel-down" d="M20.48 718.336c0 4.096 4.096 12.288 8.192 16.384 8.192 8.192 20.48 8.192 28.672 0l454.656-520.192 454.656 516.096c8.192 8.192 20.48 8.192 28.672 0s8.192-20.48 0-28.672l-471.040-536.576c-4.096-4.096-8.192-8.192-16.384-8.192s-12.288 4.096-16.384 8.192l-466.944 536.576c-4.096 4.096-4.096 12.288-4.096 16.384z" />
<glyph unicode="&#xe621;" glyph-name="map-xplore" d="M942.080-2.56c-4.096 0-8.192 0-12.288 4.096l-274.432 196.608-274.432-196.608c-8.192-4.096-16.384-4.096-24.576 0l-286.72 204.8c-4.096 4.096-8.192 8.192-8.192 16.384v655.36c0 8.192 4.096 16.384 12.288 16.384 8.192 4.096 16.384 4.096 20.48 0l274.432-196.608 274.432 196.608c8.192 4.096 16.384 4.096 24.576 0l286.72-204.8c4.096-4.096 8.192-8.192 8.192-16.384v-655.36c0-8.192-4.096-16.384-12.288-16.384 0-4.096-4.096-4.096-8.192-4.096zM102.4 235.008l266.24-192.512 274.432 196.608c8.192 4.096 16.384 4.096 24.576 0l253.952-180.224v602.112l-266.24 192.512-274.432-196.608c-8.192-4.096-16.384-4.096-24.576 0l-253.952 180.224v-602.112zM368.64-2.56c-12.288 0-20.48 8.192-20.48 20.48v655.36c0 12.288 8.192 20.48 20.48 20.48s20.48-8.192 20.48-20.48v-655.36c0-12.288-8.192-20.48-20.48-20.48zM655.36 202.24c-12.288 0-20.48 8.192-20.48 20.48v655.36c0 12.288 8.192 20.48 20.48 20.48s20.48-8.192 20.48-20.48v-655.36c0-12.288-8.192-20.48-20.48-20.48z" />
<glyph unicode="&#xe622;" glyph-name="map-xplore-fatter" d="M942.080-14.848c-8.192 0-12.288 0-16.384 4.096l-270.336 196.608-270.336-192.512c-12.288-8.192-24.576-8.192-36.864 0l-286.72 204.8c-8.192 4.096-12.288 16.384-12.288 24.576v655.36c0 12.288 8.192 20.48 16.384 28.672s20.48 4.096 32.768-4.096l270.336-192.512 270.336 192.512c12.288 8.192 24.576 8.192 36.864 0l286.72-204.8c8.192-4.096 12.288-16.384 12.288-24.576v-655.36c0-12.288-8.192-20.48-16.384-28.672-8.192 0-12.288-4.096-16.384-4.096zM114.688 239.104l253.952-184.32 270.336 192.512c12.288 8.192 24.576 8.192 36.864 0l237.568-172.032v581.632l-258.048 184.32-270.336-192.512c-12.288-8.192-24.576-8.192-36.864 0l-233.472 167.936v-577.536zM368.64-14.848c-16.384 0-32.768 12.288-32.768 32.768v655.36c0 16.384 12.288 32.768 32.768 32.768s32.768-16.384 32.768-32.768v-655.36c0-16.384-16.384-32.768-32.768-32.768zM655.36 189.952c-16.384 0-32.768 12.288-32.768 32.768v655.36c0 16.384 12.288 32.768 32.768 32.768s32.768-12.288 32.768-32.768v-655.36c0-16.384-16.384-32.768-32.768-32.768z" />
<glyph unicode="&#xe623;" glyph-name="coastal" d="M663.552-64h-307.2c-8.192 0-16.384 8.192-16.384 16.384v581.632c0 8.192 8.192 16.384 16.384 16.384h307.2c8.192 0 16.384-8.192 16.384-16.384v-581.632c4.096-8.192-4.096-16.384-16.384-16.384zM376.832-31.232h274.432v544.768h-274.432v-544.768zM630.784 517.632h-237.568c-8.192 0-16.384 8.192-16.384 16.384v204.8c0 8.192 8.192 16.384 16.384 16.384h237.568c8.192 0 16.384-8.192 16.384-16.384v-204.8c0-8.192-8.192-16.384-16.384-16.384zM409.6 550.4h204.8v172.032h-204.8v-172.032zM512 841.216c-8.192 0-16.384 8.192-16.384 16.384v86.016c0 8.192 8.192 16.384 16.384 16.384s16.384-8.192 16.384-16.384v-86.016c0-8.192-8.192-16.384-16.384-16.384zM700.416 517.632h-376.832c-8.192 0-16.384 8.192-16.384 16.384s8.192 16.384 16.384 16.384h376.832c8.192 0 16.384-8.192 16.384-16.384s-8.192-16.384-16.384-16.384zM663.552 722.432h-307.2c-8.192 0-16.384 8.192-16.384 16.384s8.192 16.384 16.384 16.384h307.2c8.192 0 16.384-8.192 16.384-16.384s-4.096-16.384-16.384-16.384zM802.816-64h-581.632c-8.192 0-16.384 8.192-16.384 16.384s8.192 16.384 16.384 16.384h581.632c8.192 0 16.384-8.192 16.384-16.384s-8.192-16.384-16.384-16.384zM598.016-64h-172.032c-8.192 0-16.384 8.192-16.384 16.384v135.168c0 8.192 8.192 16.384 16.384 16.384h172.032c8.192 0 16.384-8.192 16.384-16.384v-135.168c0-8.192-8.192-16.384-16.384-16.384zM442.368-31.232h135.168v102.4h-135.168v-102.4zM274.432 669.184c0 0-4.096 0-4.096 0l-258.048 86.016c-8.192 4.096-12.288 12.288-12.288 20.48 4.096 8.192 12.288 12.288 20.48 12.288l258.048-86.016c8.192-4.096 12.288-12.288 12.288-20.48-4.096-8.192-12.288-12.288-16.384-12.288zM16.384 480.768c-8.192 0-12.288 4.096-16.384 12.288s0 20.48 12.288 20.48l258.048 86.016c8.192 4.096 20.48 0 20.48-12.288 4.096-8.192 0-20.48-12.288-20.48l-258.048-86.016c0 4.096 0 0-4.096 0zM188.416 620.032h-102.4c-8.192 0-16.384 8.192-16.384 16.384s8.192 16.384 16.384 16.384h102.4c8.192 0 16.384-8.192 16.384-16.384s-8.192-16.384-16.384-16.384zM749.568 669.184c-8.192 0-12.288 4.096-16.384 12.288s0 20.48 12.288 20.48l258.048 86.016c8.192 4.096 20.48 0 20.48-12.288 4.096-8.192 0-20.48-12.288-20.48l-258.048-86.016c0 0 0 0-4.096 0zM1007.616 480.768c0 0-4.096 0-4.096 0l-258.048 86.016c-8.192 4.096-12.288 12.288-12.288 20.48 4.096 8.192 12.288 12.288 20.48 12.288l258.048-86.016c8.192-4.096 12.288-12.288 12.288-20.48-4.096-4.096-8.192-12.288-16.384-12.288zM937.984 620.032h-102.4c-8.192 0-16.384 8.192-16.384 16.384s8.192 16.384 16.384 16.384h102.4c8.192 0 16.384-8.192 16.384-16.384s-8.192-16.384-16.384-16.384zM630.784 722.432c-8.192 0-16.384 8.192-16.384 16.384 0 57.344-45.056 102.4-102.4 102.4s-102.4-45.056-102.4-102.4c0-8.192-8.192-16.384-16.384-16.384s-16.384 8.192-16.384 16.384c0 73.728 61.44 135.168 135.168 135.168s135.168-61.44 135.168-135.168c0-8.192-8.192-16.384-16.384-16.384z" />
<glyph unicode="&#xe624;" glyph-name="rural" d="M102.4 17.92c-4.096 0-12.288 4.096-16.384 8.192-8.192 8.192-8.192 20.48 0 28.672l540.672 540.672c8.192 8.192 20.48 8.192 28.672 0s8.192-20.48 0-28.672l-540.672-540.672c-4.096-4.096-8.192-8.192-12.288-8.192zM417.792-43.52c-90.112 0-188.416 32.768-290.816 102.4-4.096 0-4.096 4.096-8.192 8.192-106.496 163.84-131.072 311.296-69.632 438.272 163.84 352.256 897.024 434.176 925.696 438.272 8.192 0 12.288 0 16.384-8.192 4.096-4.096 8.192-12.288 8.192-16.384-4.096-32.768-86.016-761.856-438.272-925.696-45.056-24.576-90.112-36.864-143.36-36.864zM155.648 91.648c147.456-94.208 278.528-114.688 389.12-61.44 294.912 139.264 393.216 729.088 409.6 864.256-135.168-20.48-724.992-118.784-864.256-409.6-53.248-114.688-28.672-245.76 65.536-393.216zM507.904 198.144h-225.28c-12.288 0-20.48 8.192-20.48 20.48v225.28c0 12.288 8.192 20.48 20.48 20.48s20.48-8.192 20.48-20.48v-204.8h204.8c12.288 0 20.48-8.192 20.48-20.48s-8.192-20.48-20.48-20.48zM618.496 378.368h-155.648c-12.288 0-20.48 8.192-20.48 20.48v159.744c0 12.288 8.192 20.48 20.48 20.48s20.48-8.192 20.48-20.48v-135.168h135.168c12.288 0 20.48-8.192 20.48-20.48 4.096-16.384-8.192-24.576-20.48-24.576zM708.608 558.592h-65.536c-12.288 0-20.48 8.192-20.48 20.48v65.536c0 12.288 8.192 20.48 20.48 20.48s20.48-8.192 20.48-20.48v-45.056h45.056c12.288 0 20.48-8.192 20.48-20.48s-8.192-20.48-20.48-20.48z" />
<glyph unicode="&#xe625;" glyph-name="urban" d="M466.944 751.104c-57.344 0-106.496 20.48-155.648 40.96-65.536 28.672-122.88 49.152-180.224 16.384-8.192-4.096-16.384-4.096-24.576 4.096s-8.192 16.384 0 24.576c106.496 143.36 221.184 106.496 319.488 69.632 81.92-28.672 159.744-53.248 237.568 12.288 8.192 8.192 16.384 8.192 24.576 0s8.192-16.384 4.096-24.576c-81.92-110.592-155.648-143.36-225.28-143.36zM192.512 861.696c45.056 0 90.112-16.384 135.168-36.864 86.016-36.864 172.032-69.632 270.336 16.384-61.44-12.288-122.88 8.192-180.224 28.672-81.92 28.672-155.648 53.248-229.376-8.192 0 0 4.096 0 4.096 0zM389.12 206.336h-61.44c-12.288 0-20.48 8.192-20.48 20.48s8.192 20.48 20.48 20.48h61.44c12.288 0 20.48-8.192 20.48-20.48s-8.192-20.48-20.48-20.48zM389.12 83.456h-61.44c-12.288 0-20.48 8.192-20.48 20.48s8.192 20.48 20.48 20.48h61.44c12.288 0 20.48-8.192 20.48-20.48s-8.192-20.48-20.48-20.48zM634.88 206.336h-61.44c-12.288 0-20.48 8.192-20.48 20.48s8.192 20.48 20.48 20.48h61.44c12.288 0 20.48-8.192 20.48-20.48s-8.192-20.48-20.48-20.48zM634.88 83.456h-61.44c-12.288 0-20.48 8.192-20.48 20.48s8.192 20.48 20.48 20.48h61.44c12.288 0 20.48-8.192 20.48-20.48s-8.192-20.48-20.48-20.48zM880.64 206.336h-61.44c-12.288 0-20.48 8.192-20.48 20.48s8.192 20.48 20.48 20.48h61.44c12.288 0 20.48-8.192 20.48-20.48s-8.192-20.48-20.48-20.48zM880.64 83.456h-61.44c-12.288 0-20.48 8.192-20.48 20.48s8.192 20.48 20.48 20.48h61.44c12.288 0 20.48-8.192 20.48-20.48s-8.192-20.48-20.48-20.48zM983.040-39.424h-942.080c-12.288 0-20.48 8.192-20.48 20.48v323.584l61.44 421.888c0 8.192 8.192 16.384 20.48 16.384h98.304c8.192 0 16.384-8.192 20.48-16.384l73.728-352.256 192.512 126.976c4.096 4.096 12.288 4.096 20.48 0 4.096-4.096 8.192-8.192 8.192-16.384v-106.496l217.088 122.88c4.096 4.096 12.288 4.096 20.48 0 4.096-4.096 8.192-8.192 8.192-16.384v-106.496l217.088 126.976c4.096 4.096 12.288 4.096 20.48 0 4.096-4.096 8.192-8.192 8.192-16.384v-512c-4.096-8.192-12.288-16.384-24.576-16.384zM57.344-2.56h905.216v450.56l-217.088-126.976c-4.096-4.096-12.288-4.096-20.48 0-4.096 4.096-8.192 8.192-8.192 16.384v106.496l-217.088-122.88c-4.096-4.096-12.288-4.096-20.48 0-4.096 4.096-8.192 8.192-8.192 16.384v106.496l-188.416-122.88c-4.096-4.096-12.288-4.096-16.384 0s-8.192 8.192-12.288 12.288l-77.824 364.544h-65.536l-57.344-401.408 4.096-299.008z" />
<glyph unicode="&#xe800;" glyph-name="information" d="M494.933 823.467c-216.439 0-392.533-176.094-392.533-392.533s176.094-392.533 392.533-392.533c216.439 0 392.533 176.094 392.533 392.533s-176.094 392.533-392.533 392.533zM494.933 72.533c-197.632 0-358.4 160.768-358.4 358.4s160.768 358.4 358.4 358.4 358.4-160.768 358.4-358.4-160.768-358.4-358.4-358.4zM597.333 209.067h-85.333v290.133c0 9.421-7.646 17.067-17.067 17.067h-68.267c-9.421 0-17.067-7.646-17.067-17.067s7.646-17.067 17.067-17.067h51.2v-273.067h-85.333c-9.421 0-17.067-7.646-17.067-17.067s7.646-17.067 17.067-17.067h204.8c9.421 0 17.067 7.646 17.067 17.067s-7.646 17.067-17.067 17.067zM477.867 618.667c18.825 0 34.133 15.309 34.133 34.133s-15.309 34.133-34.133 34.133-34.133-15.309-34.133-34.133 15.309-34.133 34.133-34.133zM477.867 652.8v-17.067l-0.034 17.050 0.034 0.017z" />
<glyph unicode="&#xe900;" glyph-name="question-mark1" d="M554.667 192c0-23.564-19.103-42.667-42.667-42.667s-42.667 19.103-42.667 42.667c0 23.564 19.103 42.667 42.667 42.667s42.667-19.103 42.667-42.667zM512 960c-282.304 0-512-229.696-512-512s229.696-512 512-512c282.304 0 512 229.696 512 512s-229.696 512-512 512zM512-21.333c-258.795 0-469.333 210.539-469.333 469.333s210.539 469.333 469.333 469.333 469.333-210.539 469.333-469.333-210.539-469.333-469.333-469.333zM512 704c-82.347 0-149.333-66.987-149.333-149.333 0-11.776 9.557-21.333 21.333-21.333s21.333 9.557 21.333 21.333c0 58.816 47.851 106.667 106.667 106.667s106.667-47.851 106.667-106.667-47.851-106.667-106.667-106.667c-11.776 0-21.333-9.557-21.333-21.333v-128c0-11.776 9.557-21.333 21.333-21.333s21.333 9.557 21.333 21.333v108.181c72.277 10.389 128 72.704 128 147.819 0 82.347-66.987 149.333-149.333 149.333z" />
<glyph unicode="&#xe901;" glyph-name="aerial" horiz-adv-x="1460" d="M673.503 118.39c-5.785 0-11.571 2.889-17.353 5.785-8.667 8.667-11.571 20.238-5.785 28.907l80.95 211.066-187.929-75.167c-8.667-2.889-17.353-2.889-23.13 2.889l-245.755 159.020c-8.667 8.667-14.452 17.353-14.452 28.907 0 8.667 5.785 17.353 14.452 23.13l106.973 63.613c8.667 2.889 17.353 5.785 23.13 0l132.996-60.713 531.989 211.066c49.149 20.238 101.188-2.889 124.33-49.149 11.571-23.13 11.571-49.149 2.889-75.167-8.667-23.13-28.907-43.371-52.046-52.046l-179.257-78.069-144.567-265.993c-2.889-5.785-5.785-8.667-11.571-11.571l-121.427-63.613c-5.785 0-8.667-2.889-14.452-2.889zM777.595 442.215c5.785 0 14.452-2.889 20.238-8.667 8.667-8.667 8.667-20.238 5.785-28.907l-78.069-202.393 52.046 26.023 144.567 265.993c2.889 5.785 8.667 8.667 11.571 11.571l185.043 80.95c11.571 5.785 17.353 11.571 23.13 23.13 2.889 11.571 2.889 23.13 0 31.809-8.667 20.238-31.809 28.907-54.927 23.13l-537.771-213.947c-5.785-2.889-14.452-2.889-20.238 0l-130.114 57.832-57.832-34.69 196.614-127.211 231.303 92.521c2.889 2.889 5.785 2.889 8.667 2.889zM751.572 534.736c-5.785 0-11.571 2.889-14.452 5.785l-199.495 130.114c-8.667 5.785-14.452 14.452-11.571 26.023 0 8.667 5.785 17.353 14.452 23.13l109.873 57.832c8.667 5.785 17.353 2.889 26.023 0l219.732-141.669c11.571-8.667 17.353-23.13 8.667-37.594-8.667-11.571-26.023-17.353-37.594-8.667l-208.17 130.114-54.927-28.907 161.91-106.973c11.571-8.667 14.452-26.023 8.667-37.594-5.785-8.667-14.452-11.571-23.13-11.571z" />
<glyph unicode="&#xe902;" glyph-name="image-gallery" d="M1002.667-64h-981.333c-12.8 0-21.333 8.533-21.333 21.333v981.333c0 12.8 8.533 21.333 21.333 21.333h981.333c12.8 0 21.333-8.533 21.333-21.333v-981.333c0-12.8-8.533-21.333-21.333-21.333zM42.667-21.333h938.667v938.667h-938.667v-938.667zM21.333 234.667h981.333v-42.667h-981.333v42.667zM405.333 576h-128c-46.933 0-85.333 38.4-85.333 85.333 0 51.2 42.667 89.6 93.867 85.333 17.067 51.2 64 85.333 119.467 85.333 72.533 0 128-55.467 128-128s-55.467-128-128-128zM277.333 704c-25.6 0-42.667-17.067-42.667-42.667s17.067-42.667 42.667-42.667h128c46.933 0 85.333 38.4 85.333 85.333s-38.4 85.333-85.333 85.333c-42.667 0-76.8-29.867-85.333-72.533 0-4.267-4.267-12.8-8.533-12.8-4.267-4.267-12.8-4.267-17.067-4.267-8.533 4.267-12.8 4.267-17.067 4.267zM921.6 204.8l-153.6 298.667c-8.533 21.333-25.6 29.867-42.667 29.867s-34.133-8.533-42.667-25.6l-128-221.867c-4.267-4.267-8.533-8.533-17.067-8.533s-12.8 4.267-17.067 8.533c0 0-81.067 119.467-174.933 119.467-76.8 0-149.333-145.067-170.667-200.533l-46.933 17.067c12.8 21.333 93.867 226.133 213.333 226.133 85.333 0 157.867-72.533 187.733-110.933l110.933 192c21.333 29.867 51.2 46.933 85.333 46.933s68.267-21.333 81.067-51.2l149.333-302.933-34.133-17.067z" />
<glyph unicode="&#xe903;" glyph-name="downloadinapp" d="M512 288c-3.2 0-9.6 0-12.8 3.2l-128 128c-3.2 3.2-6.4 12.8-3.2 16 3.2 6.4 9.6 9.6 16 9.6h64v144c0 9.6 6.4 16 16 16h96c9.6 0 16-6.4 16-16v-140.8h64c6.4 0 12.8-3.2 16-9.6s0-12.8-3.2-16l-128-128c-6.4-6.4-9.6-6.4-12.8-6.4zM422.4 416l89.6-89.6 89.6 89.6h-41.6c-9.6 0-16 6.4-16 16v144h-64v-144c0-9.6-6.4-16-16-16h-41.6zM656 64h-288c-44.8 0-80 35.2-80 80v608c0 44.8 35.2 80 80 80h288c44.8 0 80-35.2 80-80v-608c0-44.8-35.2-80-80-80zM368 800c-25.6 0-48-22.4-48-48v-608c0-25.6 22.4-48 48-48h288c25.6 0 48 22.4 48 48v608c0 25.6-22.4 48-48 48h-288zM720 672h-416c-9.6 0-16 6.4-16 16s6.4 16 16 16h416c9.6 0 16-6.4 16-16s-6.4-16-16-16zM720 192h-416c-9.6 0-16 6.4-16 16s6.4 16 16 16h416c9.6 0 16-6.4 16-16s-6.4-16-16-16zM592 736h-160c-9.6 0-16 6.4-16 16s6.4 16 16 16h160c9.6 0 16-6.4 16-16s-6.4-16-16-16zM512 112c-19.2 0-32 12.8-32 32s12.8 32 32 32 32-12.8 32-32-12.8-32-32-32zM512 144c0 0 0 0 0 0v0z" />
</font>
</defs>
</svg>
